<?xml version="1.0" standalone="no"?>
<!DOCTYPE svg PUBLIC "-//W3C//DTD SVG 1.1//EN" "http://www.w3.org/Graphics/SVG/1.1/DTD/svg11.dtd" >
<svg xmlns="http://www.w3.org/2000/svg" xmlns:xlink="http://www.w3.org/1999/xlink" version="1.1">
<metadata></metadata>
<defs>
<font id="lemon_milkmedium" horiz-adv-x="1817" >
<font-face units-per-em="2048" ascent="1638" descent="-410" />
<missing-glyph horiz-adv-x="600" />
<glyph horiz-adv-x="0" />
<glyph horiz-adv-x="682" />
<glyph unicode=" "  horiz-adv-x="600" />
<glyph unicode="&#x09;" horiz-adv-x="600" />
<glyph unicode="&#xa0;" horiz-adv-x="600" />
<glyph unicode="!" horiz-adv-x="694" d="M140 155q0 84 60.5 143.5t144.5 59.5q86 0 147.5 -61.5t61.5 -145.5t-61 -143t-146 -59q-86 0 -146.5 60.5t-60.5 145.5zM158 1612h374l-51 -1055h-270z" />
<glyph unicode="&#x22;" horiz-adv-x="867" d="M70 1653h325l-72 -525h-182zM472 1653h325l-72 -525h-182z" />
<glyph unicode="#" horiz-adv-x="1516" d="M50 374l30 241h241l43 325h-241l32 241h240l57 431h260l-57 -431h325l57 431h260l-57 -431h226l-30 -241h-227l-43 -325h227l-32 -241h-227l-49 -374h-260l49 374h-325l-49 -374h-260l49 374h-239zM581 615h325l43 325h-325z" />
<glyph unicode="$" horiz-adv-x="1264" d="M56 278l259 182q103 -166 313 -166q113 0 183.5 41.5t70.5 106.5q0 28 -13 55t-42.5 54t-55.5 47t-76 48t-77.5 42t-85.5 43q-4 2 -6.5 3.5t-5.5 2.5q-52 26 -79 40t-74.5 42.5t-73.5 50.5t-59.5 57.5t-51 71t-30 83t-12.5 101.5q0 167 104.5 286t272.5 159v210h273v-201 q128 -22 221 -91.5t136 -185.5l-239 -167q-34 68 -96 101.5t-135 33.5q-90 0 -150.5 -45t-60.5 -108q0 -20 6.5 -37t22.5 -33t32.5 -28t47.5 -27t55.5 -26.5t68 -30.5t74.5 -34q107 -50 182 -98.5t134.5 -109.5t89 -136t29.5 -166q0 -181 -113 -303.5t-305 -161.5v-209h-273 v199q-318 39 -461 304z" />
<glyph unicode="%" horiz-adv-x="1770" d="M70 1253q0 155 111.5 266.5t266.5 111.5t266 -111t111 -266t-111.5 -266t-266.5 -111q-154 0 -265.5 110.5t-111.5 265.5zM193 0l1099 1613h270l-1098 -1613h-271zM278 1253q0 -69 49.5 -118t119.5 -49t118.5 49t48.5 118q0 70 -48.5 119t-118.5 49t-119.5 -49 t-49.5 -119zM945 357q0 155 111.5 266t266.5 111t266 -110.5t111 -265.5t-111.5 -266.5t-266.5 -111.5q-154 0 -265.5 111t-111.5 266zM1153 357q0 -70 49.5 -119t119.5 -49t118.5 49t48.5 119q0 69 -48.5 118t-118.5 49t-119.5 -49t-49.5 -118z" />
<glyph unicode="&#x26;" horiz-adv-x="1523" d="M70 460q0 132 76.5 261t174.5 195q-102 182 -102 314q0 78 36 155.5t96 137.5t144.5 98t175.5 38q107 0 203 -52.5t157 -134t81 -175.5l-310 -62q-13 52 -54.5 89t-87.5 37q-47 0 -84 -40t-37 -103q0 -115 125.5 -294t306.5 -344q32 98 38 225l303 4q-6 -239 -84 -427 q157 -97 253 -97l-1 -300q-165 1 -409 158q-179 -179 -449 -179q-109 0 -202 31t-156 81.5t-108 116t-65.5 133.5t-20.5 134zM377 484q0 -96 57.5 -149.5t170.5 -53.5q118 0 204 60q-184 159 -327 340q-105 -89 -105 -197z" />
<glyph unicode="'" horiz-adv-x="465" d="M70 1653h325l-72 -525h-182z" />
<glyph unicode="(" horiz-adv-x="708" d="M70 807q0 536 276 925h290q-109 -181 -184 -447.5t-75 -477.5q0 -212 75.5 -479.5t185.5 -447.5h-292q-276 387 -276 927z" />
<glyph unicode=")" horiz-adv-x="708" d="M70 -120q110 180 185.5 447.5t75.5 479.5q0 211 -75 477.5t-184 447.5h290q276 -389 276 -925q0 -540 -276 -927h-292z" />
<glyph unicode="*" horiz-adv-x="866" d="M70 1212l256 108l-256 105l113 167l181 -157l-38 258h214l-39 -258l182 157l113 -167l-256 -111l256 -102l-113 -166l-182 156l39 -257h-214l38 259l-181 -158z" />
<glyph unicode="+" horiz-adv-x="1281" d="M140 626v300h351v396h300v-396h350v-300h-350v-397h-300v397h-351z" />
<glyph unicode="," horiz-adv-x="653" d="M105 143q0 90 63 154.5t157 64.5q99 0 161 -78t62 -218q0 -81 -22 -157.5t-61.5 -137.5t-101 -98t-135.5 -37q-35 0 -63.5 11.5t-41 24.5t-12.5 22q68 0 128.5 50t60.5 137q0 47 -15 75q-62 0 -121 50t-59 137z" />
<glyph unicode="-" horiz-adv-x="930" d="M70 644v283h790v-283h-790z" />
<glyph unicode="." horiz-adv-x="624" d="M105 155q0 85 61 146t146 61q84 0 145.5 -61.5t61.5 -145.5q0 -85 -61 -145.5t-146 -60.5q-86 0 -146.5 60.5t-60.5 145.5z" />
<glyph unicode="/" horiz-adv-x="974" d="M21 -120l648 1852h284l-649 -1852h-283z" />
<glyph unicode="0" horiz-adv-x="1476" d="M70 806q0 242 83 432t236 296.5t350 106.5t349 -106.5t235 -296.5t83 -432t-83 -431.5t-235 -296t-349 -106.5t-350 106.5t-236 296t-83 431.5zM393 806q0 -225 94 -366t250 -141t250 141t94 366q0 226 -94 367.5t-250 141.5t-250 -141.5t-94 -367.5z" />
<glyph unicode="1" horiz-adv-x="717" d="M70 1163v338l412 131h95v-1632h-324v1216z" />
<glyph unicode="2" horiz-adv-x="1353" d="M70 0v59q470 425 667.5 648t197.5 348q0 109 -72 185.5t-154 76.5q-111 0 -193.5 -83t-82.5 -198l-294 75q0 143 76 265.5t205 193.5t278 71q114 0 218.5 -47.5t179.5 -125t119.5 -182t44.5 -214.5q0 -95 -45 -204.5t-118.5 -208.5t-160.5 -185.5t-176 -150.5h523v-323 h-1213z" />
<glyph unicode="3" horiz-adv-x="1234" d="M70 379l318 81q18 -71 81 -115.5t146 -44.5q98 0 160 62.5t62 153.5q0 127 -122 209.5t-298 82.5l49 184q124 0 207 58.5t83 147.5q0 64 -42 105.5t-103 41.5q-51 0 -87.5 -30.5t-47.5 -82.5l-332 69q36 151 165.5 256.5t303.5 105.5q125 0 231.5 -55.5t171.5 -157 t65 -226.5q0 -106 -48 -191.5t-128 -124.5q111 -52 185 -160.5t74 -255.5q0 -140 -71.5 -257.5t-196 -186t-274.5 -68.5q-195 0 -353 116.5t-199 282.5z" />
<glyph unicode="4" horiz-adv-x="1379" d="M21 346l551 1273l341 -2l-410 -948h349v447h323v-447h162v-323h-162v-346h-323v346h-831z" />
<glyph unicode="5" horiz-adv-x="1289" d="M70 321l322 103q37 -56 95.5 -88t126.5 -32q45 0 90 15t86 44.5t66.5 82.5t25.5 121q0 113 -71.5 178.5t-196.5 65.5q-88 0 -172.5 -33.5t-137.5 -95.5l-180 93l122 838h831v-322h-590l-35 -222q77 55 209 55q168 0 296 -73t195 -199t67 -285q0 -130 -46.5 -240.5 t-126.5 -185.5t-188 -117.5t-230 -42.5q-184 0 -336 92.5t-222 247.5z" />
<glyph unicode="6" horiz-adv-x="1274" d="M70 513q0 104 60 234t339 645q25 46 39 72t37 68.5t43 79.5l369 -2l-335 -596q56 14 108 14q91 0 177 -37.5t151.5 -102.5t105.5 -159t40 -200q0 -150 -75.5 -277.5t-207 -202.5t-288.5 -75q-158 0 -285.5 64.5t-202.5 188t-75 286.5zM395 538q0 -99 71.5 -170.5 t171.5 -71.5t172.5 72t72.5 171t-72 171.5t-172 72.5t-172 -72.5t-72 -172.5z" />
<glyph unicode="7" horiz-adv-x="1165" d="M42 1296v316h1102v-60l-609 -1552h-340l494 1296h-647z" />
<glyph unicode="8" horiz-adv-x="1255" d="M70 487q0 91 31 171.5t78.5 132t97 83.5t91.5 39q-83 21 -147 110t-64 202q0 79 35 155t95.5 135.5t150 95.5t190.5 36t190 -35.5t150.5 -94t97 -135t35.5 -156.5q0 -61 -21 -117.5t-53.5 -95.5t-68 -65t-67.5 -35q29 -6 65 -26t77 -57.5t74.5 -85t55.5 -115.5t22 -143 q0 -103 -41 -198t-113 -166t-177.5 -113.5t-226.5 -42.5q-122 0 -227.5 43t-177 114.5t-112 166t-40.5 197.5zM395 505q0 -91 66.5 -153.5t164.5 -62.5t166 63t68 155q0 94 -68.5 160t-162.5 66t-164 -66.5t-70 -161.5zM470 1204q0 -69 46.5 -107.5t112.5 -38.5q64 0 112 36 t48 107q0 69 -46 107.5t-114 38.5q-67 0 -113 -37.5t-46 -105.5z" />
<glyph unicode="9" horiz-adv-x="1274" d="M70 1079q0 112 44.5 215.5t119.5 179.5t180.5 121t222.5 45t223 -45.5t181 -122t119 -180.5t44 -217q0 -41 -4.5 -74.5t-11 -65t-29 -80.5t-42 -90t-67.5 -126.5t-88.5 -157t-122.5 -214t-152 -267.5h-371l321 577q-48 -12 -96 -12q-122 0 -230 67.5t-174.5 186.5 t-66.5 260zM393 1074q0 -99 72 -171t171 -72q100 0 172 72t72 171t-72 171.5t-172 72.5t-171.5 -72.5t-71.5 -171.5z" />
<glyph unicode=":" horiz-adv-x="624" d="M105 207q0 85 61 146t146 61q84 0 145.5 -61.5t61.5 -145.5q0 -85 -61 -146t-146 -61q-86 0 -146.5 61t-60.5 146zM105 950q0 86 60.5 146.5t146.5 60.5q85 0 146 -61t61 -146t-61 -145.5t-146 -60.5q-86 0 -146.5 60.5t-60.5 145.5z" />
<glyph unicode=";" horiz-adv-x="676" d="M105 950q0 86 60.5 146.5t146.5 60.5q85 0 146 -61t61 -146t-61 -145.5t-146 -60.5q-86 0 -146.5 60.5t-60.5 145.5zM128 143q0 90 63 154.5t157 64.5q99 0 161 -78t62 -218q0 -81 -22 -157.5t-61.5 -137.5t-101 -98t-135.5 -37q-35 0 -63.5 11.5t-41 24.5t-12.5 22 q68 0 128.5 50t60.5 137q0 47 -15 75q-62 0 -121 50t-59 137z" />
<glyph unicode="&#x3c;" horiz-adv-x="1249" d="M140 818v20l969 610l-10 -337l-498 -283l498 -282v-338z" />
<glyph unicode="=" horiz-adv-x="1396" d="M140 351v283h1116v-283h-1116zM140 916v284h1116v-284h-1116z" />
<glyph unicode="&#x3e;" horiz-adv-x="1249" d="M140 1448l969 -610v-20l-959 -610v338l498 282l-498 283z" />
<glyph unicode="?" horiz-adv-x="1043" d="M70 1449q13 25 28 46.5t50.5 56.5t77.5 59t110.5 42.5t147.5 18.5q106 0 199.5 -39.5t155.5 -101.5t98 -138t36 -151q0 -113 -31 -194t-102 -154q-25 -26 -61.5 -52.5t-62 -45.5t-50 -45t-37.5 -63t-13 -87q0 -29 2 -45l-306 -1v29q0 129 68.5 229t217.5 214 q33 25 56.5 67t23.5 87q0 86 -57 132t-155 46q-94 0 -171.5 -44.5t-109.5 -119.5zM261 155q0 84 60.5 143.5t144.5 59.5q86 0 147.5 -61.5t61.5 -145.5t-61 -143t-146 -59q-86 0 -146.5 60.5t-60.5 145.5z" />
<glyph unicode="@" horiz-adv-x="2315" d="M70 450q0 252 97 479.5t262 392t394.5 261.5t483.5 97q180 0 333 -48t263 -132.5t188 -198.5t116 -246.5t38 -275.5q0 -124 -30 -245.5t-87.5 -226.5t-135.5 -185.5t-181 -126.5t-217 -46q-153 0 -230.5 94t-74.5 263q-8 -72 -91 -120.5t-184 -48.5q-143 0 -230 102 t-87 268q0 137 52.5 258t152.5 196.5t224 75.5q91 -1 153 -45.5t62 -114.5l63 151h223l-77 -626q-4 -38 -4 -57q0 -68 24.5 -111t80.5 -43q62 0 114 51.5t83.5 132.5t48.5 173t17 179q0 129 -34.5 236t-95.5 181t-144.5 125t-181 74t-205.5 22q-180 -1 -340.5 -71 t-275.5 -187t-182.5 -279.5t-67.5 -342.5q0 -143 48 -264.5t137.5 -211t226.5 -140t306 -50.5q114 0 214 42l82 -278q-97 -37 -162.5 -50t-165.5 -13q-212 0 -383.5 52.5t-285 141t-190.5 209t-110.5 252t-33.5 275.5zM956 557q0 -71 44 -118.5t114 -47.5q83 0 139 70 t56 159q0 67 -37 114t-109 47q-86 0 -146.5 -68t-60.5 -156z" />
<glyph unicode="A" horiz-adv-x="1593" d="M21 0l770 1652h10l771 -1652h-351l-102 225h-645l-103 -225h-350zM600 501h393l-196 431z" />
<glyph unicode="B" horiz-adv-x="1294" d="M140 0v1612h440q104 0 193.5 -36t148.5 -96t92.5 -136.5t33.5 -158.5q0 -60 -18 -114.5t-43.5 -88.5t-50 -54t-40.5 -20q59 0 121 -29.5t115 -82t86.5 -133.5t33.5 -174q0 -72 -20 -142t-62 -133t-100.5 -110.5t-141.5 -75.5t-179 -28h-609zM463 316h256q85 0 151 54 t66 142q0 77 -55 131.5t-163 54.5h-255v-382zM463 982h131q60 0 106 46t46 114q0 66 -44 110.5t-102 44.5h-137v-315z" />
<glyph unicode="C" horiz-adv-x="1514" d="M70 805q0 167 67.5 322.5t180 268.5t267.5 181t322 68q311 -4 565 -249l-187 -255q-177 174 -381 174q-128 0 -245 -68.5t-189 -187.5t-72 -256q0 -104 44 -200t115 -163t162 -106.5t184 -39.5q195 0 383 184l186 -262q-118 -117 -253 -182t-306 -65q-228 0 -422.5 114 t-307.5 306.5t-113 415.5z" />
<glyph unicode="D" horiz-adv-x="1518" d="M140 0v1611l469 1h4q388 0 611 -215q224 -216 224 -593q0 -375 -224 -589.5t-615 -214.5h-469zM463 323h148q238 0 374 128.5t136 353.5q0 227 -137 356.5t-376 129.5h-145v-968z" />
<glyph unicode="E" horiz-adv-x="1210" d="M140 0v1612h972v-319h-648v-315h556v-323h-556v-333h648v-322h-972z" />
<glyph unicode="F" horiz-adv-x="1154" d="M140 -2v1618h972v-323h-648v-325h556v-323h-556v-647h-324z" />
<glyph unicode="G" horiz-adv-x="1758" d="M70 804q0 170 66.5 325.5t178.5 268.5t267 180t325 67q156 -1 313.5 -68.5t276.5 -183.5l-180 -269q-198 193 -414 193q-93 0 -184 -38.5t-161.5 -104.5t-114 -163.5t-43.5 -206.5q0 -104 39.5 -197.5t108.5 -162.5t169 -109.5t216 -40.5q175 0 286.5 84t119.5 228h-417 v299h758q8 -75 8 -136q0 -185 -61 -338t-166 -253t-244.5 -155t-297.5 -55q-175 0 -332.5 66.5t-270.5 178.5t-179.5 266.5t-66.5 324.5z" />
<glyph unicode="H" horiz-adv-x="1505" d="M140 0v1612h323v-645h579v645h323v-1612h-323v646h-579v-646h-323z" />
<glyph unicode="I" horiz-adv-x="604" d="M140 0v1612h324v-1612h-324z" />
<glyph unicode="J" horiz-adv-x="1184" d="M42 75l164 284q86 -72 200 -72h7q132 0 226.5 96.5t94.5 228.5l-6 1000l324 -1l6 -1001q0 -178 -86 -327t-233.5 -234t-323.5 -85h-11q-202 0 -362 111z" />
<glyph unicode="K" horiz-adv-x="1361" d="M140 0v1612h323v-697l453 697h374l-517 -789l574 -823h-394l-490 706v-706h-323z" />
<glyph unicode="L" horiz-adv-x="1154" d="M140 0v1612h324v-1290h648v-322h-972z" />
<glyph unicode="M" horiz-adv-x="1859" d="M140 0v1652h18l772 -1065l771 1065h18v-1652h-324v702l-464 -675h-2l-465 675v-702h-324z" />
<glyph unicode="N" horiz-adv-x="1576" d="M140 -2v1644h16l955 -929v903h325v-1646h-15l-957 931v-903h-324z" />
<glyph unicode="O" d="M70 804q0 171 66.5 326.5t179 268t267.5 179.5t325 67q227 0 420 -113t306 -306.5t113 -421.5q0 -169 -67 -323.5t-179.5 -266.5t-268 -178.5t-325.5 -66.5q-169 0 -324 66.5t-267.5 178.5t-179 266.5t-66.5 323.5zM397 806q0 -138 68.5 -255t186 -185.5t255.5 -68.5 q139 0 257 68.5t186.5 185.5t68.5 255q0 104 -40.5 198.5t-109.5 163.5t-163.5 109.5t-198.5 40.5q-138 0 -255.5 -68.5t-186 -186.5t-68.5 -257z" />
<glyph unicode="P" horiz-adv-x="1315" d="M140 0v1612h566q115 0 220 -43.5t181 -116.5t121 -174t45 -211q0 -147 -76 -272t-207 -198t-284 -73h-242v-524h-324zM464 845l242 -1h3q99 0 169 66q72 66 71 160q0 91 -71 156t-172 65h-242v-446z" />
<glyph unicode="Q" d="M70 804q0 171 66.5 326.5t179 268t267.5 179.5t325 67q227 0 420 -113t306 -306.5t113 -421.5q0 -149 -51 -286t-144 -248q85 -25 177 -30l-26 -316q-234 15 -413 138q-178 -93 -383 -93q-169 0 -324 66.5t-267.5 178.5t-179 266.5t-66.5 323.5zM397 806 q0 -138 68.5 -255t186 -185.5t255.5 -68.5q62 0 114 13q-96 102 -173.5 155t-175.5 60l17 278q64 -5 120.5 -18.5t103 -36.5t84 -46.5t76 -59t65.5 -62.5t65.5 -68t64.5 -66q71 70 111 163.5t40 196.5q0 104 -40.5 198.5t-109.5 163.5t-163.5 109.5t-198.5 40.5 q-138 0 -255.5 -68.5t-186 -186.5t-68.5 -257z" />
<glyph unicode="R" horiz-adv-x="1388" d="M140 1612h526q148 0 274.5 -69.5t200 -190t73.5 -262.5q0 -154 -83.5 -278.5t-214.5 -170.5l458 -641h-396l-513 762v-762h-324zM464 886l208 -1h3q82 1 143 59q62 60 62 144.5t-62.5 143.5t-145.5 59h-208v-405z" />
<glyph unicode="S" horiz-adv-x="1264" d="M56 278l259 182q103 -166 313 -166q113 0 183.5 41.5t70.5 106.5q0 28 -13 55t-42.5 54t-55.5 47t-76 48t-77.5 42t-85.5 43q-4 2 -6.5 3.5t-5.5 2.5q-52 26 -79 40t-74.5 42.5t-73.5 50.5t-59.5 57.5t-51 71t-30 83t-12.5 101.5q0 136 71.5 242.5t192 163.5t268.5 57 q171 0 296.5 -72t178.5 -214l-239 -167q-34 68 -96 101.5t-135 33.5q-90 0 -150.5 -45t-60.5 -108q0 -20 6.5 -37t22.5 -33t32.5 -28t47.5 -27t55.5 -26.5t68 -30.5t74.5 -34q107 -50 182 -98.5t134.5 -109.5t89 -136t29.5 -166q0 -219 -162 -350t-423 -131 q-197 0 -341.5 79.5t-225.5 230.5z" />
<glyph unicode="T" horiz-adv-x="1202" d="M42 1291v321h1118v-321h-396v-1291h-325v1291h-397z" />
<glyph unicode="U" horiz-adv-x="1496" d="M126 596v1016h326v-1015q0 -129 87.5 -216.5t207.5 -87.5t208.5 87.5t88.5 216.5v1015h326v-1016q0 -179 -83.5 -324t-226 -226t-312.5 -81t-312.5 81t-226 226t-83.5 324z" />
<glyph unicode="V" horiz-adv-x="1559" d="M21 1612h343l413 -936l414 936h347l-754 -1652h-12z" />
<glyph unicode="W" horiz-adv-x="1933" d="M21 1612h349l248 -813l346 807h6l345 -806l247 812h350l-525 -1632h-19l-405 876l-399 -876h-18z" />
<glyph unicode="X" horiz-adv-x="1397" d="M21 0l490 837l-460 775h372l276 -488l275 488h372l-461 -774l491 -838h-372l-306 541l-305 -541h-372z" />
<glyph unicode="Y" horiz-adv-x="1363" d="M21 1612h366l294 -560l294 560h367l-500 -920v-692h-322v692z" />
<glyph unicode="Z" horiz-adv-x="1302" d="M84 0l621 1291h-621v321h1134l-621 -1290h621v-322h-1134z" />
<glyph unicode="[" horiz-adv-x="736" d="M140 -120v1852h526v-242h-248v-1368h248v-242h-526z" />
<glyph unicode="\" horiz-adv-x="974" d="M21 1732h284l648 -1852h-283z" />
<glyph unicode="]" horiz-adv-x="736" d="M70 -120v242h248v1368h-248v242h526v-1852h-526z" />
<glyph unicode="^" horiz-adv-x="950" d="M21 1096l443 584h20l445 -584h-281l-173 225l-174 -225h-280z" />
<glyph unicode="_" horiz-adv-x="1209" d="M0 -110v221h1209v-221h-1209z" />
<glyph unicode="`" horiz-adv-x="600" d="M0 1660h280l187 -327h-229z" />
<glyph unicode="i" horiz-adv-x="604" d="M140 0v1612h324v-1612h-324z" />
<glyph unicode="{" horiz-adv-x="886" d="M70 722v185q91 0 155.5 100t64.5 240v189q0 122 81.5 209t196.5 87h248v-242l-161 -4q-36 -1 -61.5 -56.5t-25.5 -132.5v-82q0 -165 -62.5 -282.5t-150.5 -117.5q88 0 150.5 -117.5t62.5 -283.5v-99q0 -80 25.5 -136.5t61.5 -56.5h161v-242h-248q-115 0 -196.5 87 t-81.5 209v206q0 140 -64.5 240t-155.5 100z" />
<glyph unicode="|" horiz-adv-x="593" d="M200 -450v2300h193v-2300h-193z" />
<glyph unicode="}" horiz-adv-x="886" d="M70 -120v242h161q36 0 61.5 56.5t25.5 136.5v99q0 166 62.5 283.5t150.5 117.5q-88 0 -150.5 117.5t-62.5 282.5v82q0 77 -25.5 132.5t-61.5 56.5l-161 4v242h248q115 0 196.5 -87t81.5 -209v-189q0 -140 64.5 -240t155.5 -100v-185q-91 0 -155.5 -100t-64.5 -240v-206 q0 -122 -81.5 -209t-196.5 -87h-248z" />
<glyph unicode="~" horiz-adv-x="1595" d="M140 651q20 96 59.5 168t83 110t97.5 60.5t93 28.5t81 6q68 0 128 -21t104 -51t84 -59.5t83.5 -50.5t87.5 -21q68 0 106.5 53t59.5 150l248 -96q-20 -96 -59.5 -168t-83 -110t-97.5 -60.5t-93 -28.5t-81 -6q-67 0 -127.5 21t-104 50.5t-83.5 59.5t-84 51t-88 21 q-69 0 -106.5 -52.5t-59.5 -150.5z" />
<glyph horiz-adv-x="1992" />
<glyph unicode="&#xa1;" horiz-adv-x="694" d="M140 1011q0 84 61 143t146 59q86 0 146.5 -60.5t60.5 -145.5q0 -84 -60.5 -143.5t-144.5 -59.5q-86 0 -147.5 61.5t-61.5 145.5zM162 -450l51 1055h270l53 -1055h-374z" />
<glyph unicode="&#xa2;" horiz-adv-x="1185" d="M65 750q0 220 133 391.5t341 226.5v232l261 1v-218q169 -25 305 -133l-173 -258q-95 90 -226 90q-138 0 -235.5 -97t-97.5 -235t97 -235t236 -97q132 0 227 90l187 -246q-138 -118 -320 -145v-204h-261v219q-208 55 -341 226.5t-133 391.5z" />
<glyph unicode="&#xa3;" horiz-adv-x="1186" d="M70 0v291h124q79 139 79 291q0 37 -10 84h-185v230h122q-18 75 -18 147q0 167 73 302t211 214t317 79q69 0 154 -17t156 -49l-157 -270q-21 19 -60 31.5t-80 12.5q-135 0 -211.5 -88.5t-76.5 -215.5q0 -74 18 -146h319v-230h-256q7 -47 7 -84q0 -172 -73 -291h593v-291 h-1046z" />
<glyph unicode="&#xa4;" horiz-adv-x="1231" d="M70 391l192 188q-66 102 -66 224q0 130 71 237l-188 190l122 121l187 -191q104 68 230 68q127 0 232 -69l189 187l122 -122l-189 -187q69 -104 69 -231q0 -128 -72 -235l187 -189l-121 -120l-189 190q-104 -68 -230 -68q-129 0 -235 73l-191 -188zM444 806 q0 -72 51 -122.5t123 -50.5t122 51t50 123q0 74 -54 123t-124 49q-71 0 -119.5 -50t-48.5 -123z" />
<glyph unicode="&#xa5;" horiz-adv-x="1461" d="M70 1612h366l294 -560l294 560h367l-383 -704h347v-249h-464v-108h464v-249h-464v-302h-322v302h-447v249h447v108h-447v249h330z" />
<glyph unicode="&#xa6;" horiz-adv-x="593" d="M200 -450v1000h193v-1000h-193zM200 850v1000h193v-1000h-193z" />
<glyph unicode="&#xa7;" horiz-adv-x="1330" d="M200 181l173 201q46 -65 122.5 -104.5t174.5 -39.5q145 0 145 82q0 28 -14.5 50.5t-57.5 46t-69 35t-99 39.5q-5 2 -7 3q-53 21 -93.5 40t-88 51.5t-78 68t-51 87.5t-20.5 112q0 141 102 234q-95 93 -95 224q0 84 37.5 155t100 117t141.5 71.5t163 25.5q132 0 248 -62 t159 -158l-212 -178q-78 98 -208 98q-121 0 -121 -83q0 -9 1.5 -16t6 -13.5t9 -11.5t16 -11.5t21.5 -11.5t30 -13t37 -15t47 -19t56 -23q70 -29 117 -52.5t95.5 -56.5t77 -68t46.5 -83.5t18 -106.5q0 -142 -97 -238q90 -87 90 -220q0 -178 -134 -289t-331 -111 q-158 0 -283 71t-175 172zM535 840q0 -13 3.5 -22.5t13.5 -18.5t20.5 -15.5t32.5 -15.5t42 -16.5t55.5 -21t66.5 -26.5h1q62 24 62 75q0 46 -49 79t-146 71q-43 -6 -72.5 -29t-29.5 -60z" />
<glyph unicode="&#xa8;" horiz-adv-x="600" d="M-50 1486q0 49 36 85t85 36t84.5 -36t35.5 -85t-35.5 -84.5t-84.5 -35.5q-50 0 -85.5 35.5t-35.5 84.5zM399 1486q0 49 35.5 85t84.5 36t85 -36t36 -85t-35.5 -84.5t-85.5 -35.5q-49 0 -84.5 35t-35.5 85z" />
<glyph unicode="&#xa9;" horiz-adv-x="1742" d="M70 713q0 219 106 403t290 290.5t405 106.5t405.5 -108t290 -291.5t105.5 -400.5q0 -221 -108 -406t-292 -290.5t-401 -105.5q-165 0 -313.5 63t-255 170t-169.5 255.5t-63 313.5zM227 712q0 -130 51.5 -249t138.5 -205.5t206 -138t248 -51.5q130 0 249 51.5t205.5 138 t138 205.5t51.5 249t-51.5 249.5t-138 206.5t-205.5 138.5t-249 51.5t-249 -51.5t-205.5 -138.5t-138 -206.5t-51.5 -249.5zM406 719q0 132 65 243.5t177.5 177t245.5 65.5q168 0 303 -106l-132 -197q-71 69 -171 69q-106 0 -179.5 -73.5t-73.5 -178.5t74 -179.5t179 -74.5 q98 0 172 69l142 -187q-134 -115 -314 -115q-133 0 -245.5 65t-177.5 177t-65 245z" />
<glyph unicode="&#xab;" horiz-adv-x="1255" d="M70 800l381 538l204 -40l-286 -498l286 -497l-204 -41zM600 800l381 538l204 -40l-286 -498l286 -497l-204 -41z" />
<glyph unicode="&#xac;" horiz-adv-x="1481" d="M140 736v300h1201v-627h-300v327h-901z" />
<glyph unicode="&#xad;" horiz-adv-x="930" d="M70 644v283h790v-283h-790z" />
<glyph unicode="&#xae;" horiz-adv-x="1060" d="M80 1163q0 187 130.5 318t319.5 131t319.5 -131.5t130.5 -317.5q0 -125 -60.5 -229t-164 -163t-225.5 -59q-188 0 -319 131.5t-131 319.5zM174 1162q0 -146 105 -251t251 -105t251 105t105 251q0 147 -105 252t-251 105t-251 -105t-105 -252zM387 1394h148 q64 0 109 -42.5t45 -103.5q0 -43 -23.5 -78.5t-59.5 -48.5l128 -180h-111l-144 213v-213h-91zM478 1190h59q24 0 41 16.5t17 40.5t-17 40.5t-41 16.5h-59v-114z" />
<glyph unicode="&#xaf;" horiz-adv-x="600" d="M9 1396v162h582v-162h-582z" />
<glyph unicode="&#xb0;" horiz-adv-x="694" d="M65 1361q0 115 83.5 199t198.5 84t198.5 -83.5t83.5 -199.5t-83.5 -199t-198.5 -83t-198.5 83.5t-83.5 198.5zM208 1361q0 -57 40.5 -97.5t98.5 -40.5q57 0 98 40.5t41 98.5q0 56 -41.5 97.5t-97.5 41.5t-97.5 -41.5t-41.5 -98.5z" />
<glyph unicode="&#xb1;" horiz-adv-x="1171" d="M140 200v253h891v-253h-891zM140 874v273h296v265h300v-265h295v-273h-295v-295h-300v295h-296z" />
<glyph unicode="&#xb4;" horiz-adv-x="600" d="M0 1333l187 327h280l-238 -327h-229z" />
<glyph unicode="&#xb5;" horiz-adv-x="1350" d="M130 -450v1650h308v-649q0 -135 64 -209t178 -74q119 0 175.5 65t56.5 218v649h308v-649q0 -136 -24 -239.5t-63.5 -167.5t-97 -104t-118 -55t-134.5 -15q-209 0 -345 141v-561h-308z" />
<glyph unicode="&#xb6;" horiz-adv-x="1545" d="M200 1176q0 128 65.5 237.5t177.5 173t244 63.5h270v-1752h-225v804h-45q-132 0 -244 63.5t-177.5 173t-65.5 237.5zM1125 -110v1760h220v-1760h-220z" />
<glyph unicode="&#xb7;" horiz-adv-x="624" d="M105 785q0 85 61 146t146 61q84 0 145.5 -61.5t61.5 -145.5q0 -85 -61 -145.5t-146 -60.5q-86 0 -146.5 60.5t-60.5 145.5z" />
<glyph unicode="&#xb8;" horiz-adv-x="600" d="M45 -354q262 0 262 91q0 23 -17.5 38t-55.5 15q-22 0 -50 -6l-40 52l151 198h159l-104 -131q24 3 42 3q56 0 95.5 -45.5t39.5 -113.5q0 -120 -116.5 -208.5t-284.5 -88.5z" />
<glyph unicode="&#xbb;" horiz-adv-x="1255" d="M70 303l286 497l-286 498l204 40l381 -538l-381 -538zM600 303l286 497l-286 498l204 40l381 -538l-381 -538z" />
<glyph unicode="&#xbf;" horiz-adv-x="1043" d="M70 -45q0 113 31 194t102 154q25 26 61.5 52.5t62 45.5t50 45t37.5 63t13 87q0 29 -2 45l306 1v-29q0 -129 -68.5 -229t-217.5 -214q-33 -25 -56.5 -67t-23.5 -87q0 -86 57 -132t155 -46q94 0 171.5 44.5t109.5 119.5l115 -254q-13 -25 -28 -46.5t-50.5 -56.5t-77.5 -59 t-110.5 -42.5t-147.5 -18.5q-106 0 -199.5 39.5t-155.5 101.5t-98 138t-36 151zM368 1046q0 84 61 143t146 59q86 0 146.5 -60.5t60.5 -145.5q0 -84 -60.5 -143.5t-144.5 -59.5q-86 0 -147.5 61.5t-61.5 145.5z" />
<glyph unicode="&#xc0;" horiz-adv-x="1593" d="M21 0l770 1652h10l771 -1652h-351l-102 225h-645l-103 -225h-350zM564 2072h280l187 -327h-229zM600 501h393l-196 431z" />
<glyph unicode="&#xc1;" horiz-adv-x="1593" d="M21 0l770 1652h10l771 -1652h-351l-102 225h-645l-103 -225h-350zM600 501h393l-196 431zM638 1745l187 327h280l-238 -327h-229z" />
<glyph unicode="&#xc2;" horiz-adv-x="1593" d="M21 0l770 1652h10l771 -1652h-351l-102 225h-645l-103 -225h-350zM391 1759l315 293h179l319 -293h-259l-149 147l-148 -147h-257zM600 501h393l-196 431z" />
<glyph unicode="&#xc3;" horiz-adv-x="1593" d="M21 0l770 1652h10l771 -1652h-351l-102 225h-645l-103 -225h-350zM386 1829q12 60 37 105t52 68.5t61 38t58.5 18t50.5 3.5q51 0 97.5 -20t74.5 -43.5t63.5 -43.5t68.5 -20q43 0 67 33t37 94l155 -60q-12 -60 -37 -105t-52 -68.5t-61 -38t-58.5 -18t-50.5 -3.5 q-51 0 -97.5 20t-74.5 43.5t-63.5 43.5t-68.5 20q-43 0 -67 -33t-37 -94zM600 501h393l-196 431z" />
<glyph unicode="&#xc4;" horiz-adv-x="1593" d="M21 0l770 1652h10l771 -1652h-351l-102 225h-645l-103 -225h-350zM452 1898q0 49 36 85t85 36t84.5 -36t35.5 -85t-35.5 -84.5t-84.5 -35.5q-50 0 -85.5 35.5t-35.5 84.5zM600 501h393l-196 431zM901 1898q0 49 35.5 85t84.5 36t85 -36t36 -85t-35.5 -84.5t-85.5 -35.5 q-49 0 -84.5 35t-35.5 85z" />
<glyph unicode="&#xc5;" horiz-adv-x="1593" d="M21 0l770 1652h10l771 -1652h-351l-102 225h-645l-103 -225h-350zM576 1930q0 92 65 157t157 65q90 0 155.5 -65.5t65.5 -156.5t-65.5 -156.5t-155.5 -65.5q-92 0 -157 65t-65 157zM600 501h393l-196 431zM707 1929q0 -37 26.5 -63.5t64.5 -26.5t64 26.5t26 63.5 q0 38 -26.5 64.5t-63.5 26.5q-38 0 -64.5 -27t-26.5 -64z" />
<glyph unicode="&#xc6;" horiz-adv-x="2051" d="M21 0l784 1612h1148v-319h-648v-315h556v-323h-556v-333h648v-322h-972v248h-488l-123 -248h-349zM635 535h346v696z" />
<glyph unicode="&#xc7;" horiz-adv-x="1514" d="M70 805q0 167 67.5 322.5t180 268.5t267.5 181t322 68q311 -4 565 -249l-187 -255q-177 174 -381 174q-128 0 -245 -68.5t-189 -187.5t-72 -256q0 -104 44 -200t115 -163t162 -106.5t184 -39.5q195 0 383 184l186 -262q-111 -110 -236 -174t-282 -72l-53 -67q24 3 42 3 q56 0 95.5 -45.5t39.5 -113.5q0 -120 -116.5 -208.5t-284.5 -88.5l-81 196q262 0 262 91q0 23 -17.5 38t-55.5 15q-21 0 -50 -6l-40 52l107 140q-204 27 -371.5 145t-264 298.5t-96.5 385.5z" />
<glyph unicode="&#xc8;" horiz-adv-x="1210" d="M140 0v1612h972v-319h-648v-315h556v-323h-556v-333h648v-322h-972zM363 2072h280l187 -327h-229z" />
<glyph unicode="&#xc9;" horiz-adv-x="1210" d="M140 0v1612h972v-319h-648v-315h556v-323h-556v-333h648v-322h-972zM437 1745l187 327h280l-238 -327h-229z" />
<glyph unicode="&#xca;" horiz-adv-x="1210" d="M140 0v1612h972v-319h-648v-315h556v-323h-556v-333h648v-322h-972zM190 1759l315 293h179l319 -293h-259l-149 147l-148 -147h-257z" />
<glyph unicode="&#xcb;" horiz-adv-x="1210" d="M140 0v1612h972v-319h-648v-315h556v-323h-556v-333h648v-322h-972zM251 1898q0 49 36 85t85 36t84.5 -36t35.5 -85t-35.5 -84.5t-84.5 -35.5q-50 0 -85.5 35.5t-35.5 84.5zM700 1898q0 49 35.5 85t84.5 36t85 -36t36 -85t-35.5 -84.5t-85.5 -35.5t-85 35t-35 85z" />
<glyph unicode="&#xcc;" horiz-adv-x="604" d="M69 2072h280l187 -327h-229zM140 0v1612h324v-1612h-324z" />
<glyph unicode="&#xcd;" horiz-adv-x="604" d="M140 0v1612h324v-1612h-324zM143 1745l187 327h280l-238 -327h-229z" />
<glyph unicode="&#xce;" horiz-adv-x="604" d="M-105 1759l315 293h179l319 -293h-259l-149 147l-148 -147h-257zM140 0v1612h324v-1612h-324z" />
<glyph unicode="&#xcf;" horiz-adv-x="604" d="M-43 1898q0 49 36 85t85 36t84.5 -36t35.5 -85t-35.5 -84.5t-84.5 -35.5q-50 0 -85.5 35.5t-35.5 84.5zM140 0v1612h324v-1612h-324zM406 1898q0 49 35.5 85t84.5 36t85 -36t36 -85t-35.5 -84.5t-85.5 -35.5t-85 35t-35 85z" />
<glyph unicode="&#xd0;" horiz-adv-x="1594" d="M42 693v212h174v706l469 1q391 1 615 -215t224 -593q0 -375 -224 -589.5t-615 -214.5h-469v693h-174zM539 323h148q238 0 374 128.5t136 353.5q0 227 -137 356.5t-376 129.5h-145v-387h255v-211h-255v-370z" />
<glyph unicode="&#xd1;" horiz-adv-x="1576" d="M140 -2v1644h16l955 -929v903h325v-1646h-15l-957 931v-903h-324zM377 1829q12 60 37 105t52 68.5t61 38t58.5 18t50.5 3.5q51 0 97.5 -20t74.5 -43.5t63.5 -43.5t68.5 -20q43 0 67 33t37 94l155 -60q-12 -60 -37 -105t-52 -68.5t-61 -38t-58.5 -18t-50.5 -3.5 q-51 0 -97.5 20t-74.5 43.5t-63.5 43.5t-68.5 20q-43 0 -67 -33t-37 -94z" />
<glyph unicode="&#xd2;" d="M70 804q0 171 66.5 326.5t179 268t267.5 179.5t325 67q227 0 420 -113t306 -306.5t113 -421.5q0 -169 -67 -323.5t-179.5 -266.5t-268 -178.5t-325.5 -66.5q-169 0 -324 66.5t-267.5 178.5t-179 266.5t-66.5 323.5zM397 806q0 -138 68.5 -255t186 -185.5t255.5 -68.5 q139 0 257 68.5t186.5 185.5t68.5 255q0 104 -40.5 198.5t-109.5 163.5t-163.5 109.5t-198.5 40.5q-138 0 -255.5 -68.5t-186 -186.5t-68.5 -257zM675 2072h280l187 -327h-229z" />
<glyph unicode="&#xd3;" d="M70 804q0 171 66.5 326.5t179 268t267.5 179.5t325 67q227 0 420 -113t306 -306.5t113 -421.5q0 -169 -67 -323.5t-179.5 -266.5t-268 -178.5t-325.5 -66.5q-169 0 -324 66.5t-267.5 178.5t-179 266.5t-66.5 323.5zM397 806q0 -138 68.5 -255t186 -185.5t255.5 -68.5 q139 0 257 68.5t186.5 185.5t68.5 255q0 104 -40.5 198.5t-109.5 163.5t-163.5 109.5t-198.5 40.5q-138 0 -255.5 -68.5t-186 -186.5t-68.5 -257zM749 1745l187 327h280l-238 -327h-229z" />
<glyph unicode="&#xd4;" d="M70 804q0 171 66.5 326.5t179 268t267.5 179.5t325 67q227 0 420 -113t306 -306.5t113 -421.5q0 -169 -67 -323.5t-179.5 -266.5t-268 -178.5t-325.5 -66.5q-169 0 -324 66.5t-267.5 178.5t-179 266.5t-66.5 323.5zM397 806q0 -138 68.5 -255t186 -185.5t255.5 -68.5 q139 0 257 68.5t186.5 185.5t68.5 255q0 104 -40.5 198.5t-109.5 163.5t-163.5 109.5t-198.5 40.5q-138 0 -255.5 -68.5t-186 -186.5t-68.5 -257zM502 1759l315 293h179l319 -293h-259l-149 147l-148 -147h-257z" />
<glyph unicode="&#xd5;" d="M70 804q0 171 66.5 326.5t179 268t267.5 179.5t325 67q227 0 420 -113t306 -306.5t113 -421.5q0 -169 -67 -323.5t-179.5 -266.5t-268 -178.5t-325.5 -66.5q-169 0 -324 66.5t-267.5 178.5t-179 266.5t-66.5 323.5zM397 806q0 -138 68.5 -255t186 -185.5t255.5 -68.5 q139 0 257 68.5t186.5 185.5t68.5 255q0 104 -40.5 198.5t-109.5 163.5t-163.5 109.5t-198.5 40.5q-138 0 -255.5 -68.5t-186 -186.5t-68.5 -257zM497 1829q12 60 37 105t52 68.5t61 38t58.5 18t50.5 3.5q51 0 97.5 -20t74.5 -43.5t63.5 -43.5t68.5 -20q43 0 67 33t37 94 l155 -60q-12 -60 -37 -105t-52 -68.5t-61 -38t-58.5 -18t-50.5 -3.5q-51 0 -97.5 20t-74.5 43.5t-63.5 43.5t-68.5 20q-43 0 -67 -33t-37 -94z" />
<glyph unicode="&#xd6;" d="M70 804q0 171 66.5 326.5t179 268t267.5 179.5t325 67q227 0 420 -113t306 -306.5t113 -421.5q0 -169 -67 -323.5t-179.5 -266.5t-268 -178.5t-325.5 -66.5q-169 0 -324 66.5t-267.5 178.5t-179 266.5t-66.5 323.5zM397 806q0 -138 68.5 -255t186 -185.5t255.5 -68.5 q139 0 257 68.5t186.5 185.5t68.5 255q0 104 -40.5 198.5t-109.5 163.5t-163.5 109.5t-198.5 40.5q-138 0 -255.5 -68.5t-186 -186.5t-68.5 -257zM563 1898q0 49 36 85t85 36t84.5 -36t35.5 -85t-35.5 -84.5t-84.5 -35.5q-50 0 -85.5 35.5t-35.5 84.5zM1012 1898 q0 49 35.5 85t84.5 36t85 -36t36 -85t-35.5 -84.5t-85.5 -35.5t-85 35t-35 85z" />
<glyph unicode="&#xd7;" horiz-adv-x="1356" d="M140 1151l202 189l336 -360l335 361l202 -190l-348 -374l349 -373l-202 -189l-336 359l-335 -360l-202 188l348 375z" />
<glyph unicode="&#xd8;" d="M70 804q0 171 66.5 326.5t179 268t267.5 179.5t325 67q209 0 394 -99l71 103h273l-162 -235q124 -117 193.5 -275t69.5 -335q0 -169 -67 -323.5t-179.5 -266.5t-268 -178.5t-325.5 -66.5q-191 0 -363 83l-94 -135h-274l180 260q-134 118 -210 281t-76 346zM397 806 q0 -208 147 -357l570 825q-99 44 -207 44q-138 0 -255.5 -68.5t-186 -186.5t-68.5 -257zM733 327q87 -30 174 -30q139 0 257 68.5t186.5 185.5t68.5 255q0 189 -124 334z" />
<glyph unicode="&#xd9;" horiz-adv-x="1496" d="M126 596v1016h326v-1015q0 -129 87.5 -216.5t207.5 -87.5t208.5 87.5t88.5 216.5v1015h326v-1016q0 -179 -83.5 -324t-226 -226t-312.5 -81t-312.5 81t-226 226t-83.5 324zM515 2072h280l187 -327h-229z" />
<glyph unicode="&#xda;" horiz-adv-x="1496" d="M126 596v1016h326v-1015q0 -129 87.5 -216.5t207.5 -87.5t208.5 87.5t88.5 216.5v1015h326v-1016q0 -179 -83.5 -324t-226 -226t-312.5 -81t-312.5 81t-226 226t-83.5 324zM589 1745l187 327h280l-238 -327h-229z" />
<glyph unicode="&#xdb;" horiz-adv-x="1496" d="M126 596v1016h326v-1015q0 -129 87.5 -216.5t207.5 -87.5t208.5 87.5t88.5 216.5v1015h326v-1016q0 -179 -83.5 -324t-226 -226t-312.5 -81t-312.5 81t-226 226t-83.5 324zM342 1759l315 293h179l319 -293h-259l-149 147l-148 -147h-257z" />
<glyph unicode="&#xdc;" horiz-adv-x="1496" d="M126 596v1016h326v-1015q0 -129 87.5 -216.5t207.5 -87.5t208.5 87.5t88.5 216.5v1015h326v-1016q0 -179 -83.5 -324t-226 -226t-312.5 -81t-312.5 81t-226 226t-83.5 324zM403 1898q0 49 36 85t85 36t84.5 -36t35.5 -85t-35.5 -84.5t-84.5 -35.5q-50 0 -85.5 35.5 t-35.5 84.5zM852 1898q0 49 35.5 85t84.5 36t85 -36t36 -85t-35.5 -84.5t-85.5 -35.5t-85 35t-35 85z" />
<glyph unicode="&#xdd;" horiz-adv-x="1363" d="M21 1612h366l294 -560l294 560h367l-500 -920v-692h-322v692zM523 1745l187 327h280l-238 -327h-229z" />
<glyph unicode="&#xde;" horiz-adv-x="1310" d="M140 0v1612h323v-267h247q146 0 267.5 -70t192 -192t70.5 -267t-70.5 -267t-192 -192t-267.5 -70h-247v-287h-323zM463 585h247q95 0 163.5 67.5t68.5 163.5q0 95 -68.5 163.5t-163.5 68.5h-247v-463z" />
<glyph unicode="&#xf7;" horiz-adv-x="1516" d="M140 635v269h1236v-269h-1236zM541 251q0 83 59.5 141.5t140.5 58.5t141.5 -60t60.5 -141q0 -80 -60 -140.5t-142 -60.5q-81 0 -140.5 59.5t-59.5 142.5zM541 1277q0 82 59 141t140 59q82 0 142.5 -60t60.5 -141q0 -80 -59.5 -139.5t-141.5 -60.5t-141.5 58.5 t-59.5 142.5z" />
<glyph unicode="&#x152;" horiz-adv-x="2489" d="M70 804q0 170 66.5 326t177 268.5t261 179.5t313.5 67q316 0 531 -202v169h972v-319h-648v-315h556v-323h-556v-333h648v-322h-972v170q-215 -201 -532 -201q-162 0 -312.5 66.5t-261.5 178.5t-177 266.5t-66 323.5zM397 806q0 -138 68.5 -255t186 -185.5t255.5 -68.5 q139 0 257 68.5t186.5 185.5t68.5 255q0 104 -40.5 198.5t-109.5 163.5t-163.5 109.5t-198.5 40.5q-138 0 -255.5 -68.5t-186 -186.5t-68.5 -257z" />
<glyph unicode="&#x178;" horiz-adv-x="1363" d="M21 1612h366l294 -560l294 560h367l-500 -920v-692h-322v692zM337 1898q0 49 36 85t85 36t84.5 -36t35.5 -85t-35.5 -84.5t-84.5 -35.5q-50 0 -85.5 35.5t-35.5 84.5zM786 1898q0 49 35.5 85t84.5 36t85 -36t36 -85t-35.5 -84.5t-85.5 -35.5t-85 35t-35 85z" />
<glyph unicode="&#x2c6;" horiz-adv-x="600" d="M-60 1347l315 293h179l319 -293h-259l-149 147l-148 -147h-257z" />
<glyph unicode="&#x2dc;" horiz-adv-x="741" d="M0 1417q12 60 37 105t52 68.5t61 38t58.5 18t50.5 3.5q51 0 97.5 -20t74.5 -43.5t63.5 -43.5t68.5 -20q43 0 67 33t37 94l155 -60q-12 -60 -37 -105t-52 -68.5t-61 -38t-58.5 -18t-50.5 -3.5q-51 0 -97.5 20t-74.5 43.5t-63.5 43.5t-68.5 20q-43 0 -67 -33t-37 -94z" />
<glyph unicode="&#x2000;" horiz-adv-x="1076" />
<glyph unicode="&#x2001;" horiz-adv-x="2152" />
<glyph unicode="&#x2002;" horiz-adv-x="1076" />
<glyph unicode="&#x2003;" horiz-adv-x="2152" />
<glyph unicode="&#x2004;" horiz-adv-x="717" />
<glyph unicode="&#x2005;" horiz-adv-x="538" />
<glyph unicode="&#x2006;" horiz-adv-x="358" />
<glyph unicode="&#x2007;" horiz-adv-x="358" />
<glyph unicode="&#x2008;" horiz-adv-x="269" />
<glyph unicode="&#x2009;" horiz-adv-x="430" />
<glyph unicode="&#x200a;" horiz-adv-x="119" />
<glyph unicode="&#x2010;" horiz-adv-x="930" d="M70 644v283h790v-283h-790z" />
<glyph unicode="&#x2011;" horiz-adv-x="930" d="M70 644v283h790v-283h-790z" />
<glyph unicode="&#x2012;" horiz-adv-x="930" d="M70 644v283h790v-283h-790z" />
<glyph unicode="&#x2013;" horiz-adv-x="1416" d="M70 644v283h1276v-283h-1276z" />
<glyph unicode="&#x2014;" horiz-adv-x="2048" d="M44 644v283h1960v-283h-1960z" />
<glyph unicode="&#x2018;" horiz-adv-x="543" d="M70 1245q0 74 20 143.5t56 125t92 89t123 33.5q32 0 57.5 -10.5t37 -22t11.5 -20.5q-62 0 -117 -45t-55 -125q0 -43 14 -68q57 0 110.5 -45.5t53.5 -124.5q0 -82 -57 -140.5t-143 -58.5q-91 0 -147 70.5t-56 198.5z" />
<glyph unicode="&#x2019;" horiz-adv-x="543" d="M70 1450q0 82 57 140.5t143 58.5q91 0 147 -70.5t56 -198.5q0 -74 -20 -143.5t-56 -125t-92 -89t-123 -33.5q-32 0 -57.5 10.5t-37 22t-11.5 20.5q62 0 117 45t55 125q0 43 -14 68q-57 0 -110.5 45.5t-53.5 124.5z" />
<glyph unicode="&#x201a;" horiz-adv-x="543" d="M70 159q0 82 57 140.5t143 58.5q91 0 147 -70.5t56 -198.5q0 -74 -20 -143.5t-56 -125t-92 -89t-123 -33.5q-32 0 -57.5 10.5t-37 22t-11.5 20.5q62 0 117 45t55 125q0 43 -14 68q-57 0 -110.5 45.5t-53.5 124.5z" />
<glyph unicode="&#x201c;" horiz-adv-x="1066" d="M70 1245q0 74 20 143.5t56 125t92 89t123 33.5q32 0 57.5 -10.5t37 -22t11.5 -20.5q-62 0 -117 -45t-55 -125q0 -43 14 -68q57 0 110.5 -45.5t53.5 -124.5q0 -82 -57 -140.5t-143 -58.5q-91 0 -147 70.5t-56 198.5zM593 1245q0 74 20 143.5t56 125t92 89t123 33.5 q32 0 57.5 -10.5t37 -22t11.5 -20.5q-62 0 -117 -45t-55 -125q0 -43 14 -68q57 0 110.5 -45.5t53.5 -124.5q0 -82 -57 -140.5t-143 -58.5q-91 0 -147 70.5t-56 198.5z" />
<glyph unicode="&#x201d;" horiz-adv-x="1066" d="M70 1447q0 82 57 140.5t143 58.5q91 0 147 -70.5t56 -198.5q0 -74 -20 -143.5t-56 -125t-92 -89t-123 -33.5q-32 0 -57.5 10.5t-37 22t-11.5 20.5q62 0 117 45t55 125q0 43 -14 68q-57 0 -110.5 45.5t-53.5 124.5zM593 1447q0 82 57 140.5t143 58.5q91 0 147 -70.5 t56 -198.5q0 -74 -20 -143.5t-56 -125t-92 -89t-123 -33.5q-32 0 -57.5 10.5t-37 22t-11.5 20.5q62 0 117 45t55 125q0 43 -14 68q-57 0 -110.5 45.5t-53.5 124.5z" />
<glyph unicode="&#x201e;" horiz-adv-x="1066" d="M70 158q0 82 57 140.5t143 58.5q91 0 147 -70.5t56 -198.5q0 -74 -20 -143.5t-56 -125t-92 -89t-123 -33.5q-32 0 -57.5 10.5t-37 22t-11.5 20.5q62 0 117 45t55 125q0 43 -14 68q-57 0 -110.5 45.5t-53.5 124.5zM593 158q0 82 57 140.5t143 58.5q91 0 147 -70.5 t56 -198.5q0 -74 -20 -143.5t-56 -125t-92 -89t-123 -33.5q-32 0 -57.5 10.5t-37 22t-11.5 20.5q62 0 117 45t55 125q0 43 -14 68q-57 0 -110.5 45.5t-53.5 124.5z" />
<glyph unicode="&#x2022;" horiz-adv-x="1054" d="M200 784q0 134 96 230t231 96t231 -95.5t96 -229.5q0 -133 -96.5 -228.5t-231.5 -95.5q-134 0 -230 95t-96 228z" />
<glyph unicode="&#x2026;" horiz-adv-x="2214" d="M200 155q0 85 61 146t146 61q84 0 145.5 -61.5t61.5 -145.5q0 -85 -61 -145.5t-146 -60.5q-86 0 -146.5 60.5t-60.5 145.5zM900 155q0 85 61 146t146 61q84 0 145.5 -61.5t61.5 -145.5q0 -85 -61 -145.5t-146 -60.5q-86 0 -146.5 60.5t-60.5 145.5zM1600 155q0 85 61 146 t146 61q84 0 145.5 -61.5t61.5 -145.5q0 -85 -61 -145.5t-146 -60.5q-86 0 -146.5 60.5t-60.5 145.5z" />
<glyph unicode="&#x202f;" horiz-adv-x="430" />
<glyph unicode="&#x2039;" horiz-adv-x="725" d="M70 800l381 538l204 -40l-286 -498l286 -497l-204 -41z" />
<glyph unicode="&#x203a;" horiz-adv-x="725" d="M70 303l286 497l-286 498l204 40l381 -538l-381 -538z" />
<glyph unicode="&#x205f;" horiz-adv-x="538" />
<glyph unicode="&#x20ac;" horiz-adv-x="1698" d="M70 601l17 162h140q-1 14 -1 42q0 19 2 57h-158l17 162h169q49 176 167 317t286 222.5t354 81.5q311 -4 565 -249l-187 -255q-177 174 -381 174q-139 0 -263.5 -80.5t-189.5 -210.5h639l-17 -162h-671q-4 -25 -4 -59q0 -14 2 -40h663l-17 -162h-603q63 -137 191.5 -222 t268.5 -85q195 0 383 184l186 -262q-118 -117 -253 -182t-306 -65q-193 0 -364 83.5t-289 227t-164 321.5h-182z" />
<glyph unicode="&#x2122;" horiz-adv-x="1303" d="M51 1476v136h474v-136h-168v-548h-138v548h-168zM600 928v701h8l327 -452l327 452h8v-701h-137v298l-197 -287h-1l-197 286v-297h-138z" />
<glyph unicode="&#x25fc;" horiz-adv-x="1610" d="M0 0v1610h1610v-1610h-1610z" />
</font>
</defs>
</svg>
